<?xml version="1.0" standalone="no"?>
<!DOCTYPE svg PUBLIC "-//W3C//DTD SVG 1.1//EN" "http://www.w3.org/Graphics/SVG/1.1/DTD/svg11.dtd" >
<svg xmlns="http://www.w3.org/2000/svg">
<metadata>Generated by IcoMoon</metadata>
<defs>
<font id="icomoon" horiz-adv-x="1024">
<font-face units-per-em="1024" ascent="960" descent="-64" />
<missing-glyph horiz-adv-x="1024" />
<glyph unicode="&#x20;" horiz-adv-x="512" d="" />
<glyph unicode="&#xe900;" glyph-name="add" d="M500.173 736.973c-3.671-2.108-6.775-4.756-9.322-7.876l-0.047-0.060c-3.482-4.762-3.533-6.4-3.994-130.099l-0.461-125.338h-123.29c-116.787 0-123.648-0.154-129.229-3.174-9.472-5.069-12.8-10.906-12.8-22.426s3.328-17.357 12.8-22.426c5.581-3.021 12.442-3.174 129.229-3.174h123.341v-123.341c0-116.736 0.154-123.648 3.174-129.28 4.265-8.207 12.702-13.717 22.426-13.717s18.161 5.509 22.359 13.577l0.066 0.14c3.021 5.632 3.174 12.544 3.174 129.28v123.341h123.29c114.022 0 123.75 0.256 129.28 2.97 8.202 4.322 13.699 12.79 13.699 22.541 0 9.731-5.474 18.184-13.51 22.448l-0.138 0.067c-5.632 3.021-12.544 3.174-129.28 3.174h-123.341v123.341c0 116.787-0.154 123.648-3.174 129.229-2.010 3.573-4.52 6.605-7.48 9.126l-0.047 0.039c-6.246 4.659-19.405 5.478-26.726 1.638z" />
<glyph unicode="&#xe901;" glyph-name="arrowLeft" d="M423.488 700.16c-3.904-2.112-60.928-55.296-126.784-118.144-124.352-118.784-125.952-120.448-125.952-134.016s1.536-15.232 126.848-134.848c68.672-65.536 123.328-116.48 126.976-118.208 18.368-8.832 41.728 4.736 44.16 25.728 1.92 16.128 2.304 15.68-95.36 108.736l-89.536 85.312 273.216 0.832c250.048 0.832 273.664 1.088 278.336 3.712 10.238 5.838 17.198 16.401 17.916 28.64l0.004 0.096c0 10.88-7.552 23.040-17.92 28.736-4.672 2.624-28.288 2.88-278.336 3.712l-273.216 0.832 89.536 85.312c97.92 93.312 97.28 92.608 95.36 108.992-2.797 15.633-15.855 27.488-31.844 28.412l-0.092 0.004c-4.926-0.387-9.454-1.763-13.495-3.929l0.183 0.089z" />
<glyph unicode="&#xe902;" glyph-name="arrowRight" d="M573.483 700.16c-10.539-5.376-16.981-14.037-18.219-24.576-1.92-16.384-2.56-15.701 95.317-108.971l89.557-85.333-273.195-0.853c-250.069-0.768-273.664-1.109-278.357-3.669-10.325-5.717-17.92-17.877-17.92-28.757s7.595-23.040 17.92-28.757c4.693-2.56 28.288-2.901 278.357-3.669l273.195-0.853-89.515-85.333c-92.757-88.363-95.829-91.733-95.915-105.045-0.043-8.064 6.229-19.968 13.781-25.941 5.128-3.75 11.56-6 18.517-6 4.487 0 8.755 0.936 12.62 2.623l-0.203-0.079c3.627 1.707 58.325 52.651 126.976 118.187 125.312 119.637 126.848 121.301 126.848 134.869s-1.579 15.275-125.952 134.016c-65.835 62.848-122.923 116.011-126.805 118.144-3.857 2.086-8.386 3.463-13.197 3.833l-0.115 0.007c-3.413 0-9.557-1.707-13.696-3.84z" />
<glyph unicode="&#xe903;" glyph-name="chevronRight" horiz-adv-x="983" d="M344.883 744.55c-1.363-0.425-3.412-0.948-5.487-1.402l-0.616-0.113c-6.021-1.311-15.974-10.281-18.719-16.835-1.342-3.563-2.118-7.681-2.118-11.981s0.777-8.418 2.197-12.222l-0.079 0.241c2.621-6.226 12.78-15.933 159.171-151.716 60.375-56.033 109.65-102.277 109.527-102.81-0.123-0.492-59.433-55.91-131.768-123.208-72.376-67.256-132.956-124.191-134.636-126.484-3.686-5.038-5.325-15.36-3.809-23.552 1.27-6.799 8.97-16.261 16.302-20.070 7.25-3.727 20.808-3.359 27.812 0.778 3.154 1.884 71.352 64.348 151.552 138.813 116.449 108.134 146.309 136.684 148.398 141.885 1.564 3.658 2.473 7.913 2.473 12.381 0 4.616-0.97 9.005-2.718 12.975l0.081-0.207c-2.949 6.185-292.127 276.029-300.114 280.084-4.669 2.335-14.746 4.342-17.449 3.441z" />
<glyph unicode="&#xe904;" glyph-name="chevronDown" horiz-adv-x="983" d="M788.070 594.637c-0.425 1.363-0.948 3.412-1.402 5.487l-0.113 0.616c-1.311 6.021-10.281 15.974-16.835 18.719-3.563 1.342-7.681 2.118-11.981 2.118s-8.418-0.777-12.222-2.197l0.241 0.079c-6.226-2.621-15.933-12.78-151.716-159.171-56.033-60.375-102.277-109.65-102.81-109.527-0.492 0.123-55.91 59.433-123.208 131.768-67.256 72.376-124.191 132.956-126.484 134.636-5.038 3.686-15.36 5.325-23.552 3.809-6.799-1.27-16.261-8.97-20.070-16.302-3.727-7.25-3.359-20.808 0.778-27.812 1.884-3.154 64.348-71.352 138.813-151.552 108.134-116.449 136.684-146.309 141.885-148.398 3.658-1.564 7.913-2.473 12.381-2.473 4.616 0 9.005 0.97 12.975 2.718l-0.207-0.081c6.185 2.949 276.029 292.127 280.084 300.114 2.335 4.669 4.342 14.746 3.441 17.449z" />
<glyph unicode="&#xe905;" glyph-name="chevronLeft" d="M647.68 753.579c-6.699-3.157-305.152-279.424-311.893-288.64-7.808-10.667-5.888-27.52 4.352-38.613 13.397-14.549 301.696-281.259 307.2-284.16 10.88-5.803 29.056-2.603 37.376 6.613 4.952 5.98 7.956 13.731 7.956 22.182 0 4.788-0.964 9.35-2.708 13.504l0.086-0.23c-1.877 3.968-50.176 49.963-140.8 134.101-75.861 70.443-137.941 128.768-137.941 129.621 0 0.811 62.037 59.093 137.856 129.536 92.245 85.632 138.88 130.048 140.8 134.144 5.419 11.307 2.176 29.227-6.699 37.077-5.813 4.899-13.387 7.877-21.655 7.877-5.049 0-9.838-1.11-14.137-3.099l0.209 0.087z" />
<glyph unicode="&#xe906;" glyph-name="bank" d="M500.531 779.622c-6.298-3.533-313.651-278.528-318.669-285.082-4.915-6.451-5.478-20.378-1.075-27.341 5.734-9.114 12.8-12.339 26.982-12.39h12.39v-289.69l-12.595-0.768c-14.797-0.973-23.142-5.274-27.341-14.029-1.688-3.337-2.676-7.275-2.676-11.444 0-9.255 4.873-17.373 12.192-21.926l0.109-0.063c5.478-3.328 9.267-3.379 322.15-3.379s316.672 0.051 322.15 3.379c7.429 4.617 12.302 12.735 12.302 21.99 0 4.169-0.988 8.106-2.744 11.592l0.068-0.148c-4.198 8.755-12.544 13.056-27.341 14.029l-12.595 0.768v289.69h12.39c9.318 0.051 13.722 0.87 17.92 3.43 7.392 4.564 12.245 12.621 12.245 21.812 0 4.303-1.064 8.357-2.942 11.915l0.067-0.139c-2.509 4.454-298.394 271.616-315.802 285.133-7.424 5.734-19.61 6.963-27.187 2.662zM633.088 614.4l119.859-107.52-120.474-0.461c-66.253-0.205-174.694-0.205-240.998 0l-120.474 0.461 120.064 107.827c66.048 59.341 120.525 107.725 121.139 107.52 0.563-0.154 54.938-48.691 120.883-107.827zM390.81 309.76v-145.050h-119.45v290.099h119.45v-145.050zM581.99 309.76v-145.050h-139.981v290.099h139.981v-145.050zM752.64 309.76v-145.050h-119.45v290.099h119.45v-145.050z" />
<glyph unicode="&#xe907;" glyph-name="chevronUp" horiz-adv-x="983" d="M194.97 301.363c0.425-1.363 0.948-3.412 1.402-5.487l0.113-0.616c1.311-6.021 10.281-15.974 16.835-18.719 3.563-1.342 7.681-2.118 11.981-2.118s8.418 0.777 12.222 2.197l-0.241-0.079c6.226 2.621 15.933 12.78 151.716 159.171 56.033 60.375 102.277 109.65 102.81 109.527 0.492-0.123 55.91-59.433 123.208-131.768 67.256-72.376 124.191-132.956 126.484-134.636 5.038-3.686 15.36-5.325 23.552-3.809 6.799 1.27 16.261 8.97 20.070 16.302 3.727 7.25 3.359 20.808-0.778 27.812-1.884 3.154-64.348 71.352-138.813 151.552-108.134 116.449-136.684 146.309-141.885 148.398-3.658 1.564-7.913 2.473-12.381 2.473-4.616 0-9.005-0.97-12.975-2.718l0.207 0.081c-6.185-2.949-276.029-292.127-280.084-300.114-2.335-4.669-4.342-14.746-3.441-17.449z" />
<glyph unicode="&#xe908;" glyph-name="cross" d="M282.027 692.608c-10.069-2.048-17.835-17.067-14.037-27.221 1.024-2.816 47.403-50.517 107.989-111.147l106.155-106.24-106.155-106.24c-60.587-60.629-106.965-108.331-107.989-111.147-4.011-10.709 3.883-24.96 15.061-27.221 11.819-2.347 11.947-2.261 122.709 108.501l106.24 106.24 106.24-106.24c110.763-110.763 110.891-110.848 122.709-108.501 7.496 2.376 13.283 8.163 15.612 15.49l0.046 0.168c2.347 11.819 2.261 11.947-108.501 122.709l-106.24 106.24 106.24 106.24c110.763 110.763 110.848 110.891 108.501 122.709-2.376 7.496-8.163 13.283-15.49 15.612l-0.168 0.046c-11.819 2.347-11.947 2.261-122.709-108.501l-106.24-106.197-107.136 107.051c-58.923 58.923-108.245 107.093-109.653 107.136-2.155 0.079-4.196 0.308-6.188 0.68l0.257-0.040c-0.969 0.144-2.087 0.226-3.224 0.226-1.424 0-2.818-0.129-4.171-0.375l0.141 0.021z" />
<glyph unicode="&#xe909;" glyph-name="menu" d="M193.067 745.429c-2.261-0.427-7.765-4.437-12.245-8.917-6.656-6.656-8.405-9.685-9.387-16.256-2.176-14.507 4.011-27.051 16.384-33.365 6.485-3.328 11.477-3.371 324.181-3.371s317.696 0.043 324.181 3.371c12.373 6.315 18.56 18.859 16.384 33.365-0.981 6.528-2.731 9.6-9.259 16.085-4.992 4.992-10.155 8.491-13.696 9.173-6.272 1.28-629.973 1.152-636.544-0.085zM194.773 478.72c-7.253-1.707-13.653-6.4-18.517-13.568-13.355-19.627-0.512-45.824 23.936-48.683 4.864-0.597 148.651-0.811 319.488-0.555 285.227 0.469 311.040 0.725 315.733 3.328 10.325 5.717 17.92 17.877 17.92 28.757s-7.595 23.040-17.92 28.757c-4.693 2.603-30.507 2.816-320 3.072-173.184 0.171-317.483-0.341-320.64-1.109zM187.477 209.024c-12.117-6.4-18.176-18.987-16.043-33.28 0.981-6.528 2.731-9.6 9.259-16.085 4.992-4.992 10.155-8.491 13.696-9.173 7.467-1.493 627.755-1.493 635.221 0 3.541 0.683 8.704 4.181 13.696 9.173 6.528 6.485 8.277 9.557 9.259 16.085 2.176 14.507-4.011 27.051-16.384 33.365-6.485 3.328-11.392 3.371-324.523 3.285-310.955-0.043-318.080-0.128-324.181-3.371z" />
<glyph unicode="&#xe90a;" glyph-name="upload" horiz-adv-x="1075" d="M492.8 793.19c-72.191-9.88-132.389-53.675-164.75-114.527l-0.575-1.185c-7.424-14.387-17.51-41.011-19.968-52.787-0.87-3.994-3.277-5.478-16.998-10.394-43.827-15.667-84.070-53.658-102.4-96.717-18.074-42.445-18.125-99.021-0.154-137.318 16.896-35.994 57.293-65.434 89.702-65.382 25.395 0.051 43.366 29.184 32.614 52.89-4.799 9.632-13.035 16.952-23.063 20.445l-0.285 0.086c-5.975 2.023-11.158 4.623-15.899 7.828l0.232-0.148c-26.368 17.715-28.826 70.861-4.966 106.803 17.664 26.573 43.622 42.24 76.39 46.080 21.453 2.458 32.666 15.104 35.686 40.090 2.458 20.122 8.038 38.656 16.435 54.733 5.786 11.059 11.622 18.483 25.446 32.256 20.787 20.838 36.25 30.413 60.928 37.837 13.824 4.147 19.405 4.864 39.424 4.966 24.576 0.051 35.84-1.997 56.986-10.598 27.546-11.213 58.522-40.294 72.55-68.147 6.144-12.134 10.957-29.338 13.619-48.486 2.816-19.968 5.478-26.726 13.312-33.28 7.066-5.939 12.851-7.987 31.027-11.008 20.941-3.482 36.403-11.162 51.866-25.754 22.323-21.043 32.102-43.315 32.102-72.96 0-24.371-5.53-40.141-17.766-50.688-2.56-2.202-10.035-6.093-16.64-8.653-19.251-7.475-28.314-19.354-28.314-37.12 0-19.61 13.978-35.226 32.973-36.762 20.531-1.741 47.718 11.008 69.171 32.358 9.83 9.728 14.182 15.974 21.299 30.515 11.11 22.579 14.797 39.373 14.899 68.403 0.154 41.318-9.472 72.704-31.898 104.090-11.469 16.077-37.222 39.731-53.709 49.357-14.285 8.346-35.84 17.715-40.704 17.715-3.891 0-5.581 3.174-9.114 16.998-3.359 11.722-6.951 21.497-11.144 30.946l0.597-1.506c-38.554 88.371-132.608 141.363-228.915 129.024zM511.232 453.018c-3.914-1.108-7.331-2.61-10.482-4.51l0.191 0.107c-5.427-3.584-104.090-112.64-108.698-120.218-7.219-11.725-5.734-29.952 3.328-41.933 7.425-8.629 18.358-14.059 30.56-14.059 0.903 0 1.799 0.030 2.687 0.088l-0.121-0.006c12.851 1.536 20.48 6.912 38.4 26.982l15.872 17.715 0.87-95.693 0.922-95.693 4.71-6.861c6.038-9.239 15.869-15.568 27.229-16.78l0.163-0.014c1.515-0.228 3.262-0.358 5.041-0.358 9.25 0 17.678 3.519 24.018 9.292l-0.029-0.026c12.8 11.213 12.237 6.246 13.21 111.258l0.922 94.669 16.128-18.227c17.254-19.61 24.73-24.678 38.554-26.317 0.79-0.059 1.712-0.093 2.641-0.093 13.149 0 24.719 6.763 31.421 17l0.088 0.143c4.454 6.912 5.222 9.984 5.171 19.917 0.025 0.527 0.039 1.145 0.039 1.766 0 5.745-1.201 11.21-3.366 16.157l0.101-0.26c-5.53 10.291-105.114 119.603-112.026 122.829-5.539 2.492-12.007 3.944-18.814 3.944-3.088 0-6.106-0.299-9.027-0.869l0.296 0.048z" />
<glyph unicode="&#xe90b;" glyph-name="check" d="M766.413 694.067c-4.659-2.509-35.635-46.285-151.040-213.197-79.872-115.558-147.098-212.122-149.402-214.579-6.81-7.27-23.398-14.49-35.994-15.667-1.684-0.171-3.64-0.268-5.618-0.268-16.561 0-31.528 6.826-42.242 17.817l-0.012 0.013c-13.721 17.521-33.992 44.672-53.916 72.092l-7.831 11.313c-35.686 48.947-59.136 79.616-62.31 81.459-3.608 1.834-7.868 2.908-12.379 2.908-4.824 0-9.361-1.229-13.315-3.39l0.145 0.073c-10.906-6.656-15.616-21.811-10.035-32.461 1.229-2.406 28.058-39.731 59.597-82.944 60.416-82.739 70.144-94.106 89.19-104.192 18.995-10.035 32-13.312 52.838-13.312 21.709-0.051 36.966 3.84 55.501 14.029 22.221 12.186 26.061 17.357 178.688 238.49 78.387 113.613 143.206 208.282 144.026 210.483 8.397 21.709-15.309 42.394-35.891 31.334z" />
<glyph unicode="&#xe90c;" glyph-name="circleCheck" d="M477.85 780.595c-53.687-6.081-102.275-23.576-144.724-50.003l1.467 0.851c-94.715-60.148-156.66-164.491-156.66-283.302 0-8.915 0.349-17.749 1.033-26.488l-0.073 1.157c2.56-31.59 6.912-53.094 16.691-82.125 16.589-49.152 43.571-92.723 79.974-129.126 60.54-60.4 144.099-97.748 236.382-97.748 37.559 0 73.673 6.187 107.378 17.596l-2.359-0.693c100.698 33.823 178.504 111.628 211.64 209.978l0.687 2.348c10.715 31.327 16.9 67.417 16.9 104.953 0 184.649-149.687 334.336-334.336 334.336-11.975 0-23.804-0.63-35.453-1.858l1.452 0.124zM548.71 729.395c113.459-13.312 210.637-99.994 238.797-213.146 5.888-23.654 8.090-42.035 8.090-68.25 0-76.851-28.672-145.92-83.2-200.397-50.239-51.335-120.233-83.162-197.66-83.162-0.962 0-1.923 0.005-2.883 0.015l0.147-0.001c-27.341 0-46.438 2.304-70.81 8.55-89.19 22.938-163.994 90.419-195.482 176.435-11.065 29.389-17.47 63.359-17.47 98.824 0 25.058 3.197 49.369 9.206 72.548l-0.441-2.003c28.672 111.565 125.030 196.762 238.285 210.688 10.916 1.569 23.523 2.464 36.339 2.464 13.080 0 25.941-0.933 38.522-2.736l-1.44 0.169zM596.122 566.374c-6.912-3.379-6.144-2.15-61.85-99.584-25.446-44.595-48.23-82.79-50.586-84.941-3.152-2.399-7.144-3.844-11.474-3.844-3.015 0-5.867 0.701-8.401 1.948l0.112-0.050c-2.048 1.075-8.499 12.39-15.872 27.802-13.619 28.57-16.589 31.846-29.85 32.973-0.785 0.088-1.696 0.139-2.618 0.139-13.483 0-24.451-10.768-24.773-24.173l-0.001-0.030c0-8.858 20.838-54.118 30.106-65.434 24.678-30.106 72.755-32.41 99.994-4.762 5.222 5.325 23.194 34.918 59.29 97.69 45.568 79.258 51.866 91.085 52.48 98.611 0.512 6.502-0.154 9.83-2.816 14.080-4.676 7.434-12.836 12.302-22.133 12.302-4.23 0-8.224-1.008-11.757-2.796l0.149 0.068z" />
<glyph unicode="&#xe90d;" glyph-name="lock" d="M469.344 778.080c-23.855-3.362-45.421-10.163-65.251-19.95l1.251 0.558c-44.288-21.6-73.12-55.072-86.848-100.768-7.904-26.272-9.856-42.432-10.848-88.992l-0.896-43.776-18.112-0.64c-15.008-0.576-19.744-1.44-27.52-5.056-14.223-6.87-25.539-17.876-32.613-31.446l-0.187-0.394-5.6-11.392-0.512-132.288c-0.384-94.24 0.032-135.264 1.44-142.56 4.192-21.952 18.816-45.792 38.048-62.048 10.336-8.736 32.352-19.584 45.152-22.24 12.704-2.656 397.6-2.656 410.304 0 12.8 2.656 34.816 13.504 45.152 22.24 19.232 16.256 33.856 40.096 38.048 62.048 1.408 7.296 1.824 48.32 1.44 142.56l-0.512 132.288-5.6 11.392c-7.261 13.964-18.577 24.97-32.376 31.655l-0.424 0.185c-7.776 3.616-12.512 4.48-27.52 5.056l-18.112 0.64-0.896 43.776c-0.992 46.592-2.944 62.752-10.848 88.992-20.032 66.464-74.432 109.344-152.512 120.256-22.848 3.168-61.376 3.136-83.648-0.096zM542.208 731.264c32.864-4.128 61.792-15.68 82.432-32.928 32.512-27.168 44.384-66.56 44.384-147.328v-26.208h-314.048v26.208c0 96.992 17.664 137.888 70.848 164.224 30.688 15.2 74.72 21.248 116.384 16.032zM748.576 471.168l5.856-5.856-0.48-128.544-0.448-128.544-4.416-9.408c-6.894-13.185-17.398-23.678-30.201-30.374l-0.391-0.186-9.376-4.416h-394.24l-9.376 4.416c-13.194 6.882-23.698 17.375-30.406 30.171l-0.186 0.389-4.416 9.408-0.448 128.544-0.48 128.544 5.856 5.856 5.824 5.856h461.504l5.824-5.856z" />
<glyph unicode="&#xe90e;" glyph-name="stars" d="M474.061 765.906c2.429-2.433 4.048-6.488 3.238-9.732l-5.667-22.707c-2.429-8.921 7.286-15.408 14.573-10.542l19.427 12.164c3.235 1.622 7.283 1.622 10.522 0l19.427-12.164c7.286-4.866 16.998 2.433 14.57 10.542l-4.854 22.707c-0.81 3.244 0 7.299 3.235 9.732l17.811 14.597c6.474 5.677 3.235 17.030-5.667 17.030l-22.666 1.622c-4.048 0-7.286 2.433-8.096 5.677l-8.902 21.085c-3.238 8.11-14.57 8.11-18.618 0l-8.906-21.085c-1.619-3.244-4.858-5.677-8.093-5.677l-22.666-1.622c-8.906-0.811-12.144-11.354-5.667-17.030l16.998-14.597zM297.579 708.36l22.664-4.055c4.048-0.811 6.477-3.244 7.286-7.299l6.477-21.896c2.429-8.11 13.76-9.732 17.808-1.622l11.331 20.274c1.619 3.244 4.858 4.866 8.906 4.866l22.666-0.811c8.902 0 13.76 10.543 7.283 17.030l-14.57 17.030c-2.429 2.433-3.238 6.488-2.429 9.732l7.286 21.896c3.238 8.11-5.667 16.219-13.763 12.164l-21.043-9.732c-3.238-1.622-7.286-0.811-10.525 0.811l-16.998 13.787c-7.286 5.676-16.999 0-16.19-8.921l3.238-22.707c0.81-4.055-0.809-7.299-4.047-9.732l-18.618-12.976c-7.285-4.866-4.857-16.219 3.238-17.841zM193.158 610.992c2.428-3.245 2.428-7.299 0.81-10.541l-9.714-21.088c-4.047-8.109 4.047-16.218 12.142-13.786l21.856 7.299c3.238 1.622 7.285 0 9.714-2.432l16.999-15.408c6.476-5.677 16.999-1.622 16.999 7.296l-0.81 22.707c0 4.058 1.619 7.299 4.857 8.922l20.237 11.354c8.095 4.054 6.476 15.408-1.619 17.84l-21.856 6.49c-3.238 0.81-6.476 4.054-7.285 7.299l-4.047 22.706c-1.619 8.921-12.952 11.354-17.809 4.055l-12.951-18.652c-2.428-3.244-5.666-4.866-9.714-4.055l-22.665 3.244c-8.904 0.811-14.571-8.92-8.904-16.22l13.761-17.030zM193.972 410.701c2.428 2.432 6.476 4.054 9.714 3.242l22.665-5.677c8.904-2.432 15.38 7.299 10.523 14.598l-12.142 19.462c-1.619 3.245-1.619 7.299 0 10.544l12.142 19.462c4.857 7.299-2.428 17.030-10.523 14.598l-22.665-5.677c-3.238-0.813-7.285 0-9.714 3.245l-14.571 18.65c-5.666 6.49-16.999 3.245-16.999-5.677l-1.619-22.707c0-4.054-2.428-7.296-5.666-8.109l-21.046-8.918c-8.095-3.245-8.095-14.598 0-18.653l21.046-8.922c3.238-1.622 5.666-4.867 5.666-8.109l1.619-22.707c0.81-8.922 11.333-12.166 16.999-5.677l14.571 17.030zM286.274 289.053l-20.237 11.354c-3.238 1.622-4.857 4.867-4.857 8.922l0.81 22.707c0 8.918-10.523 13.786-16.999 7.299l-16.999-15.411c-2.428-2.432-6.476-3.242-9.714-2.432l-21.856 7.299c-8.095 3.245-16.189-5.677-12.142-13.786l9.714-21.085c1.619-3.245 0.81-7.299-0.809-10.544l-13.761-17.030c-5.666-7.299 0.81-17.030 8.904-16.218l22.665 3.242c4.047 0.813 7.285-0.81 9.714-4.054l12.952-18.653c4.857-7.299 16.189-4.864 17.808 4.054l4.047 22.707c0.81 4.058 3.238 6.49 7.285 7.299l21.856 6.49c8.095 2.432 9.714 13.786 1.619 17.84zM395.533 197.402l-22.666-0.81c-4.045 0-7.283 1.619-8.902 4.864l-11.334 20.275c-4.045 8.109-15.379 6.486-17.808-1.622l-6.474-21.898c-0.81-3.242-4.048-6.486-7.286-7.296l-22.666-4.054c-8.904-1.622-11.332-12.976-4.047-17.843l18.618-12.976c3.238-2.432 4.857-5.677 4.047-9.731l-3.238-22.707c-0.81-8.918 8.905-14.595 16.188-8.918l18.621 13.786c3.235 2.432 7.283 2.432 10.522 0.81l21.046-9.731c8.096-4.054 16.189 4.054 13.76 12.163l-7.283 21.898c-1.619 3.245 0 7.299 2.429 9.731l15.379 17.030c4.858 7.299 0 17.84-8.906 17.030zM548.499 130.102c-2.429 2.435-4.048 6.49-3.238 9.731l5.667 22.707c2.429 8.922-7.286 15.411-14.573 10.544l-19.427-12.163c-3.238-1.622-7.283-1.622-10.522 0l-19.427 12.163c-7.286 4.867-16.998-2.432-14.573-10.544l5.667-22.707c0.81-3.242 0-7.296-3.238-9.731l-18.618-14.595c-6.474-5.677-3.238-17.030 5.667-17.030l22.666-1.622c4.048 0 7.286-2.432 8.096-5.677l8.902-21.085c3.238-8.109 14.57-8.109 18.618 0l8.906 21.085c1.619 3.245 4.854 5.677 8.093 5.677l22.666 1.622c8.906 0.81 12.144 11.354 5.667 17.030l-16.998 14.595zM725.018 187.67l-22.666 4.058c-3.238 0.81-6.474 3.242-7.283 7.296l-7.286 21.898c-2.429 8.109-13.76 9.731-17.808 1.622l-11.334-20.275c-1.616-3.245-4.854-4.864-8.902-4.864l-22.666 0.81c-8.906 0-13.76-10.544-7.286-17.030l15.382-17.030c2.426-2.432 3.235-6.486 2.426-9.731l-7.283-21.898c-3.238-8.109 5.667-16.218 13.76-12.163l21.046 9.731c3.238 1.622 7.286 0.813 10.525-0.81l18.618-13.789c7.283-5.677 16.998 0 16.189 8.922l-4.858 22.707c-0.81 4.054 0.81 7.299 4.048 9.731l18.618 12.976c7.286 4.867 4.858 16.221-3.238 17.84zM829.411 284.986c-2.429 3.245-2.429 7.299-0.81 10.544l9.715 21.085c4.045 8.109-4.048 16.218-12.144 13.786l-21.856-7.299c-3.238-1.622-7.283 0-9.712 2.432l-16.998 15.411c-6.477 5.677-17.002 1.619-17.002-7.299l0.81-22.707c0-4.054-1.619-7.299-4.854-8.922l-20.237-11.354c-8.096-4.054-6.477-15.408 1.619-17.84l21.853-6.49c3.238-0.81 6.477-4.054 7.286-7.299l4.048-22.704c1.619-8.922 12.95-11.354 17.808-4.058l12.95 18.653c2.429 3.245 5.667 4.867 9.715 4.054l22.666-3.242c8.902-0.813 14.57 8.918 8.902 16.218l-13.76 17.030zM889.309 456.925l-21.046 8.918c-3.238 1.622-5.667 4.867-5.667 8.112l-1.619 22.707c-0.81 8.918-11.331 12.163-16.998 5.677l-14.57-17.843c-2.429-2.432-6.477-4.054-9.715-3.245l-22.662 5.677c-8.906 2.435-15.382-7.296-10.525-14.595l12.141-19.466c1.619-3.242 1.619-7.296 0-10.541l-12.141-19.462c-4.858-7.299 2.429-17.030 10.525-14.598l22.662 5.677c3.238 0.81 7.286 0 9.715-3.245l14.57-17.84c5.667-6.49 16.998-3.245 16.998 5.677l1.619 22.707c0 4.054 2.429 7.299 5.667 8.109l21.046 8.922c8.906 4.054 8.906 15.408 0 18.653zM736.323 606.941l20.237-11.354c3.235-1.622 4.854-4.867 4.854-8.922l-0.81-22.707c0-8.918 10.525-13.786 17.002-7.299l16.998 15.411c2.429 2.432 6.474 3.242 9.712 2.432l21.856-7.299c8.096-3.245 16.189 5.677 12.144 13.786l-9.715 21.085c-1.619 3.245-0.81 7.299 0.81 10.544l13.76 18.653c5.667 7.299-0.81 17.029-8.902 16.218l-22.666-4.866c-4.048-0.811-7.286 0.811-9.715 4.055l-12.95 18.652c-4.858 7.299-16.189 4.866-17.808-4.055l-4.048-22.706c-0.81-4.058-3.238-6.49-7.286-7.299l-21.853-6.49c-8.096-2.432-9.715-13.786-1.619-17.84zM627.014 698.568l22.662 0.811c4.048 0 7.286-1.622 8.906-4.866l11.331-20.274c4.048-8.11 15.382-6.488 17.811 1.622l6.474 21.896c0.81 3.244 4.048 6.488 7.286 7.299l22.666 4.055c8.902 1.622 11.331 12.976 4.048 17.841l-18.618 12.976c-3.238 2.433-4.858 5.676-4.048 9.732l3.238 22.707c0.81 8.921-8.906 14.597-16.192 8.921l-18.618-13.786c-3.238-2.433-7.283-2.433-10.522-0.811l-21.046 9.732c-8.096 4.055-16.189-4.055-13.763-12.164l7.286-21.896c1.619-3.244 0-7.299-2.429-9.732l-15.379-17.030c-4.858-7.299 0-17.841 8.906-17.030z" />
<glyph unicode="&#xe90f;" glyph-name="reduce" horiz-adv-x="890" d="M283.47 832.267c-90.078-6.971-164.563-66.789-192.93-148.214l-0.472-1.557c-12.778-37.576-13.223-46.214-12.466-232.448 0.534-130.048 0.979-154.312 2.938-163.795 10.685-52.046 27.915-85.882 61.039-119.986 34.148-35.172 75.91-56.765 125.507-64.913 18.655-3.027 337.608-3.027 356.263 0 24.741 4.002 46.965 11.414 67.401 21.832l-1.287-0.595c56.766 28.958 98.817 79.901 115.311 141.31l0.357 1.56c7.213 28.227 6.99 22.795 7.702 184.498 0.623 154.936 0 181.471-4.808 205.156-16.571 77.894-71.984 139.843-144.556 165.364l-1.564 0.479c-17.060 6.206-36.787 10.306-57.308 11.419l-0.526 0.023c-22.261 1.647-298.34 1.514-320.601-0.134zM621.835 786.009c38.155-7.969 66.515-23.018 92.872-49.286 23.908-23.864 38.734-49.375 47.861-82.454l3.918-14.069 0.445-167.713c0.49-182.984 0.579-180.669-8.014-206.492-20.703-62.33-72.838-107.431-138.463-119.897-10.73-2.048-33.302-2.315-175.238-2.315s-164.508 0.267-175.238 2.315c-56.231 10.685-102.044 44.477-127.288 93.896-7.969 14.806-14.016 31.995-17.213 50.166l-0.151 1.034c-1.959 11.843-2.226 35.439-1.825 181.293l0.445 167.713 3.918 14.069c8.617 32.551 25.31 60.455 47.824 82.419l0.036 0.035c31.922 31.833 69.187 48.44 115.89 51.645 4.096 0.267 77.557 0.401 163.261 0.223 134.678-0.223 157.34-0.579 166.957-2.582zM438.762 594.922c-2.801-0.959-5.225-2.32-7.345-4.041l0.044 0.034c-6.456-5.699-115.311-131.072-117.493-135.302-1.392-2.692-2.208-5.876-2.208-9.251 0-3.577 0.917-6.94 2.529-9.866l-0.053 0.106c4.63-8.326 114.51-133.165 120.298-136.593 3.068-1.824 6.708-3.025 10.598-3.334l0.087-0.006c15.538 0 27.114 18.076 20.124 31.432-1.158 2.226-24.531 29.785-51.957 61.173l-49.864 57.166 50.131 57.255c27.559 31.477 50.933 59.080 51.912 61.262 7.391 16.473-9.483 35.35-26.802 29.963zM549.621 594.833c-5.209-1.558-13.401-10.062-14.648-15.137-0.445-1.825-0.623-63.087-0.401-136.147 0.401-130.182 0.49-132.897 3.384-136.815 4.007-5.343 12.733-10.106 18.566-10.106s14.559 4.764 18.566 10.106c2.894 3.918 2.983 6.634 3.339 138.418l0.401 134.411-3.339 4.942c-6.5 9.483-15.983 13.312-25.867 10.329z" />
<glyph unicode="&#xe910;" glyph-name="file-black-icon" horiz-adv-x="828" d="M71.899 960c-19.8 0-37.779-8.080-50.799-21.1s-21.1-30.999-21.1-50.779v-880.243c0-19.78 8.080-37.759 21.1-50.779s30.999-21.1 50.799-21.1h684.207c19.64 0 37.559 8.060 50.619 21.040l0.16 0.16c13.020 13.060 21.1 31.019 21.1 50.679v638.768h-309.414c-11.020 0-19.96 8.94-19.96 19.96v293.394h-426.712zM538.549 955.54c1.884-1.275 3.518-2.706 4.958-4.315l0.022-0.025 273.095-264.615h-278.075v268.955zM182.616 120.556c-11.040 0-19.98 8.94-19.98 19.96s8.94 19.98 19.98 19.98h462.751c11.040 0 19.98-8.96 19.98-19.98s-8.94-19.96-19.98-19.96h-462.751zM182.616 273.253c-11.040 0-19.98 8.94-19.98 19.96 0 11.040 8.94 19.98 19.98 19.98h455.551c11.040 0 19.98-8.94 19.98-19.98 0-11.020-8.94-19.96-19.98-19.96h-455.551zM182.616 425.95c-11.040 0-19.98 8.94-19.98 19.98 0 11.020 8.94 19.96 19.98 19.96h368.613c11.020 0 19.98-8.94 19.98-19.96 0-11.040-8.96-19.98-19.98-19.98h-368.613zM182.616 578.667c-11.040 0-19.98 8.94-19.98 19.96 0 11.040 8.94 19.98 19.98 19.98h205.796c11.040 0 19.98-8.94 19.98-19.98 0-11.020-8.94-19.96-19.98-19.96h-205.796zM182.616 731.364c-11.040 0-19.98 8.94-19.98 19.98 0 11.020 8.94 19.96 19.98 19.96h110.818c11.040 0 19.98-8.94 19.98-19.96 0-11.040-8.94-19.98-19.98-19.98h-110.818z" />
<glyph unicode="&#xe911;" glyph-name="file-line-icon" horiz-adv-x="825" d="M64.535 960h459.575c5.381 0 10.215-2.345 13.536-6.067l0.016-0.018 281.502-272.774c3.384-3.27 5.485-7.849 5.485-12.919 0-0.018 0-0.037 0-0.055v0.003h0.060v-667.634c0-17.675-7.266-33.789-18.956-45.519l-0.1-0.1c-11.73-11.67-27.824-18.916-45.479-18.916h-695.638c-17.755 0-33.909 7.266-45.599 18.956-11.67 11.67-18.936 27.824-18.936 45.579v894.929c0 17.755 7.266 33.909 18.936 45.599 11.69 11.67 27.844 18.936 45.599 18.936zM177.112 130.587c-10.029 0-18.176 8.127-18.176 18.156s8.147 18.176 18.176 18.176h470.484c10.029 0 18.156-8.147 18.156-18.176s-8.127-18.156-18.156-18.156h-470.484zM177.112 279.155c-10.029 0-18.176 8.127-18.176 18.156s8.147 18.176 18.176 18.176h463.158c10.029 0 18.176-8.147 18.176-18.176s-8.147-18.156-18.176-18.156h-463.158zM177.112 427.723c-10.029 0-18.176 8.147-18.176 18.176s8.147 18.156 18.176 18.156h374.762c10.029 0 18.176-8.127 18.176-18.156s-8.147-18.176-18.176-18.176h-374.762zM177.112 576.31c-10.029 0-18.176 8.127-18.176 18.156s8.147 18.176 18.176 18.176h229.097c10.029 0 18.156-8.147 18.156-18.176s-8.127-18.156-18.156-18.156h-229.097zM177.112 724.878c-10.029 0-18.176 8.127-18.176 18.156 0 10.038 8.138 18.176 18.176 18.176v0h112.677c10.038 0 18.176-8.138 18.176-18.176v0c0-10.029-8.147-18.156-18.176-18.156h-112.677zM530.156 910.738v-228.997h236.343l-236.343 228.997zM788.378 645.41h-276.378c-10.029 0-18.176 8.147-18.176 18.176v260.084h-429.289c-7.727 0-14.793-3.183-19.917-8.307-5.104-5.104-8.287-12.17-8.287-19.897v-894.929c0-7.727 3.183-14.793 8.287-19.897 5.124-5.124 12.19-8.307 19.917-8.307h695.638c7.787 0 14.833 3.163 19.897 8.227l0.080 0.080c5.064 5.064 8.227 12.11 8.227 19.897v644.874z" />
<glyph unicode="&#xe912;" glyph-name="edit" d="M709.12 781.414c-19.456-2.253-37.888-8.755-53.76-18.995-5.837-3.789-88.832-85.402-220.621-216.986-200.397-200.038-211.405-211.354-213.76-219.443-5.888-20.275-43.469-183.552-43.469-188.826 0-11.827 11.93-23.654 23.859-23.654 5.888-0.051 184.474 41.165 192.973 44.493 2.355 0.922 99.635 97.075 216.064 213.709 227.942 228.147 220.365 219.955 229.171 246.528 22.016 66.15-12.8 135.629-79.206 158.208-11.495 3.541-24.709 5.58-38.399 5.58-4.526 0-8.999-0.223-13.411-0.658l0.558 0.045zM739.789 728.678c36.813-9.574 60.314-45.005 54.067-81.51-4.301-25.242 7.834-11.93-216.576-236.8l-205.363-205.773-66.765-15.718c-36.71-8.602-67.021-15.411-67.328-15.104s6.502 30.618 15.155 67.379l15.718 66.867 204.851 204.646c217.19 216.986 209.818 210.125 231.731 216.013 11.878 3.174 22.272 3.174 34.509 0z" />
<glyph unicode="&#xe913;" horiz-adv-x="1536" d="M256 960h1024c141.385 0 256-114.615 256-256v-512c0-141.385-114.615-256-256-256h-1024c-141.385 0-256 114.615-256 256v512c0 141.385 114.615 256 256 256z" />
<glyph unicode="&#xe914;" horiz-adv-x="1536" d="M453.786 320h-54l98.317 279.274h62.454l98.454-279.274h-54l-74.592 222h-2.179l-74.454-222zM455.558 429.501h147.27v-40.637h-147.27v40.637zM764.966 316.317c-16.454 0-31.181 4.227-44.182 12.682-12.998 8.458-23.274 20.73-30.819 36.819-7.546 16.093-11.318 35.638-11.318 58.637 0 23.274 3.821 42.909 11.456 58.909 7.728 16.093 18.138 28.227 31.226 36.41 13.091 8.272 27.683 12.41 43.773 12.41 12.275 0 22.365-2.093 30.275-6.272 7.907-4.093 14.182-9.046 18.816-14.864 4.637-5.728 8.227-11.136 10.774-16.227h2.045v104.454h49.501v-279.274h-48.547v32.998h-2.998c-2.547-5.088-6.227-10.499-11.046-16.227-4.819-5.635-11.181-10.454-19.091-14.454-7.907-4-17.862-6-29.862-6zM778.739 356.819c10.454 0 19.363 2.816 26.726 8.454 7.363 5.728 12.954 13.68 16.774 23.862 3.818 10.182 5.725 22.045 5.725 35.59s-1.907 25.318-5.725 35.318c-3.728 10-9.274 17.773-16.637 23.318-7.274 5.546-16.227 8.32-26.864 8.32-11.002 0-20.182-2.864-27.546-8.592s-12.909-13.635-16.637-23.728c-3.728-10.090-5.59-21.635-5.59-34.637 0-13.091 1.862-24.771 5.59-35.043 3.818-10.182 9.408-18.227 16.771-24.138 7.456-5.818 16.592-8.726 27.411-8.726zM1006.842 316.317c-16.454 0-31.184 4.227-44.182 12.682-13.002 8.458-23.274 20.73-30.819 36.819-7.546 16.093-11.318 35.638-11.318 58.637 0 23.274 3.821 42.909 11.456 58.909 7.728 16.093 18.138 28.227 31.226 36.41 13.091 8.272 27.683 12.41 43.773 12.41 12.275 0 22.365-2.093 30.275-6.272 7.907-4.093 14.179-9.046 18.816-14.864 4.637-5.728 8.227-11.136 10.774-16.227h2.045v104.454h49.501v-279.274h-48.547v32.998h-2.998c-2.547-5.088-6.227-10.499-11.046-16.227-4.819-5.635-11.181-10.454-19.091-14.454-7.907-4-17.862-6-29.862-6zM1020.614 356.819c10.454 0 19.363 2.816 26.726 8.454 7.363 5.728 12.954 13.68 16.774 23.862 3.818 10.182 5.725 22.045 5.725 35.59s-1.907 25.318-5.725 35.318c-3.728 10-9.274 17.773-16.637 23.318-7.274 5.546-16.227 8.32-26.864 8.32-11.002 0-20.182-2.864-27.546-8.592s-12.909-13.635-16.637-23.728c-3.728-10.090-5.59-21.635-5.59-34.637 0-13.091 1.862-24.771 5.59-35.043 3.818-10.182 9.408-18.227 16.771-24.138 7.456-5.818 16.592-8.726 27.411-8.726z" />
</font>
</defs>
</svg>
